| Rodinné domy na klíč | Rekonstrukce bytů | Hromadný e-mailing | Free Download | MášMail.cz | Notebooky Acer | Notebooky Asus | Tablety |


Get Adobe Flash player


HD Filmy v té nejvyšší kvalitě

Krátký popis vašeho fóra

Avatar (2009)

Moderátoři: 9skereno, Walldez, zakk666

Avatar (2009)

Příspěvekod Ravage » pon 09. dub 2012 19:40:41

Avatar (2009)
Avatar.3D.anaglyph.1080p.CZ-icatahn

Obrázek

83 % - Akční / Dobrodružný / Sci-Fi / Fantasy
Kód: Vybrat vše


General
Format : Matroska
File size : 17.3 GiB
Duration : 2h 58mn
Overall bit rate : 13.9 Mbps
Movie name : BDRip - by TopGun
Encoded date : UTC 2012-01-11 18:44:03
Writing application : mkvmerge v5.0.1 ('Es ist Sommer') built on Oct 9 2011 11:55:43
Writing library : libebml v1.2.2 + libmatroska v1.3.0
Video #1
ID : 1
Format : AVC
Format/Info : Advanced Video Codec
Format profile : High@L4.0
Format settings, CABAC : Yes
Format settings, ReFrames : 4 frames
Muxing mode : Header stripping
Codec ID : V_MPEG4/ISO/AVC
Duration : 2h 58mn
Bit rate : 13.1 Mbps
Width : 1 920 pixels
Height : 1 080 pixels
Display aspect ratio : 16:9
Frame rate : 23.976 fps
Color space : YUV
Chroma subsampling : 4:2:0
Bit depth : 8 bits
Scan type : Progressive
Bits/(Pixel*Frame) : 0.264
Stream size : 16.3 GiB (95%)
Writing library : x264 core 114 r1924 08d04a4
Language : English
Audio #2
ID : 2
Format : AC-3
Format/Info : Audio Coding 3
Mode extension : CM (complete main)
Muxing mode : Header stripping
Codec ID : A_AC3
Duration : 2h 58mn
Bit rate mode : Constant
Bit rate : 448 Kbps
Channel(s) : 6 channels
Channel positions : Front: L C R, Side: L R, LFE
Sampling rate : 48.0 KHz
Bit depth : 16 bits
Compression mode : Lossy
Stream size : 571 MiB (3%)
Text #3
ID : 3
Format : UTF-8
Codec ID : S_TEXT/UTF8
Codec ID/Info : UTF-8 Plain Text

Obrázek
Sample
Kód: Vybrat vše

Kód: Vybrat vše
Ravage
 
Příspěvky: 9
Registrován: ned 18. bře 2012 12:19:52
Online: 1h 13m 20s

Re: Avatar (2009)

Příspěvekod asunova » čtv 10. led 2013 22:02:36

delete
Naposledy upravil asunova dne úte 29. dub 2014 18:59:18, celkově upraveno 3
asunova
Uploader
Uploader
 
Příspěvky: 93
Registrován: čtv 10. led 2013 21:47:15
Online: 12h 47m 29s

Re: Avatar (2009)

Příspěvekod asunova » pát 15. bře 2013 17:21:33

delete
asunova
Uploader
Uploader
 
Příspěvky: 93
Registrován: čtv 10. led 2013 21:47:15
Online: 12h 47m 29s


Zpět na Filmy CZ/SK

Kdo je online

Uživatelé procházející toto fórum: Žádní registrovaní uživatelé a 1 návštěvník

35733.cz